Skip to main content

Umphreys McGee Live at George's Majestic Lounge on 2013-04-18




Set I:
01 Professor Wormbog
02 Roulette
03 Room to Breathe *
04 Plunger
05 Smell the Mitten
06 Anchor Drops
07 Ringo

Set II:
08 The Triple Wide
09 No Comment >
10 Walletsworth
11 We're Going to War
12 Nemo
13 In the Flesh >
14 Another Brick In The Wall >
15 Miss Tinkle's Overture
16 Crowd Awesome

Encore:
17 The Floor

* dedicated to Chris Mitchell


Collection UmphreysMcGee
Band/Artist Umphreys McGee
Date April 18, 2013
Venue George's Majestic Lounge
Location Fayetteville, AR

Source AKG 391b (A/B) > Zoom H4n (24/48)
Lineage WaveLab 5 > r8brain 1.9 > TLH FLAC 6
Taped by James E
Transferred by BlingFree


Notes

Umphrey's McGee
Thursday, April 18, 2013
George's Majestic Lounge
Fayetteville, AR


Source: AKG 391b (A/B) > Zoom H4n (24/48)
Location: Front Left side of SBD
Lineage: WaveLab 5 > r8brain 1.9 > TLH FLAC 6
Notes: Minor distortion in places... that's life on the edge. \mm/


Set I:
01 Professor Wormbog
02 Roulette
03 Room to Breathe *
04 Plunger
05 Smell the Mitten
06 Anchor Drops
07 Ringo

Set II:
08 The Triple Wide
09 No Comment >
10 Walletsworth
11 We're Going to War
12 Nemo
13 In the Flesh >
14 Another Brick In The Wall >
15 Miss Tinkle's Overture
16 Crowd Awesome

Encore:
17 The Floor

* dedicated to Chris Mitchell

Credit:
Thanks to Jon and Chris from UM for being completely awesome again!
Big thanks to my AR, OK and TX crew for making it real!


FFP:
um2013-04-18t01.flac:d5811d72395c3267c4f5615b9a224993
um2013-04-18t02.flac:5e24268d8eb8a9787687d68d6ff3bb5d
um2013-04-18t03.flac:6c4723c469d876cb3b6168593caa9a24
um2013-04-18t04.flac:ac8e01a30e0da702b6b3cd081a846db1
um2013-04-18t05.flac:7158714df7fa8762fbd05b86d1d47fb7
um2013-04-18t06.flac:d8b180ee65c4f67def4834a88b8b9d33
um2013-04-18t07.flac:780af60cb75b95efba0b8edabe8c3bbe
um2013-04-18t08.flac:ac5ef4e2c47449629827aa8f7d760864
um2013-04-18t09.flac:da1aa9427f9f739151ddd53726e812c4
um2013-04-18t10.flac:0f8f86306fdf21ab34804782ebd20a83
um2013-04-18t11.flac:a830ba5330932b80c6de09b8836daa58
um2013-04-18t12.flac:4bb14ee0399b8add7ddc0ed3767e8739
um2013-04-18t13.flac:76901930722169a7fc45c7ef52b23f2e
um2013-04-18t14.flac:77ccdac9013306e5aa8df4f97650d3ab
um2013-04-18t15.flac:29d7a8d9e14b29f8a45dde955dbde6ef
um2013-04-18t16.flac:8d00428c186873f7fcc4020635ea6150
um2013-04-18t17.flac:41374cc03389c5ff9afd5d44df46d6c6

SHNTOOL:
length expanded size cdr WAVE problems fmt ratio filename
6:26.22 68142188 B --- -- ---xx flac 0.5189 um2013-04-18t01.flac
10:04.52 106667948 B --- -- ---xx flac 0.5587 um2013-04-18t02.flac
7:11.63 76176620 B --- -- ---xx flac 0.5777 um2013-04-18t03.flac
13:00.72 137761388 B --- -- ---xx flac 0.5792 um2013-04-18t04.flac
15:17.71 161925836 B --- -- ---xx flac 0.5823 um2013-04-18t05.flac
6:11.50 65562044 B --- -- ---xx flac 0.5523 um2013-04-18t06.flac
12:59.20 137462684 B --- -- ---xx flac 0.5814 um2013-04-18t07.flac
16:38.48 176160140 B --- -- ---xx flac 0.5825 um2013-04-18t08.flac
10:06.29 106966652 B --- -- ---xx flac 0.5880 um2013-04-18t09.flac
6:15.34 66230012 B --- -- ---xx flac 0.5840 um2013-04-18t10.flac
4:43.56 50052956 B --- -- ---xx flac 0.5660 um2013-04-18t11.flac
13:32.50 143354444 B --- -- ---xx flac 0.5650 um2013-04-18t12.flac
2:50.32 30063308 B --- -- ---xx flac 0.6011 um2013-04-18t13.flac
9:10.44 97123532 B --- -- ---xx flac 0.6024 um2013-04-18t14.flac
9:47.24 103603292 B --- -- ---xx flac 0.6079 um2013-04-18t15.flac
4:52.64 51659372 B --- -- ---xx flac 0.4979 um2013-04-18t16.flac
6:39.06 70397756 B --- -- ---xx flac 0.5786 um2013-04-18t17.flac
155:49.62 1649310172 B 0.5752 (17 files)

Reviews

There are no reviews yet. Be the first one to write a review.
DOWNLOAD OPTIONS
Uploaded by
BlingFree
on 4/22/2013
Views
702
Favorites
1
PEOPLE ALSO FOUND
Umphreys McGee
by Umphreys McGee
554
1
0
Source: AKG SE-5E/CE-1 (X/Y 90) > Edirol UA-5 > Marantz PMD620 @ 24/48 > SanDisk SDHC
Umphreys McGee
by Umphreys McGee
1,489
1
0
Source: AKG 391b (PAS) > Zoom H4n (24/48)
Umphreys McGee
by Umphreys McGee
433
2
0
Source: AKG 391b (A/B) > Zoom H6 (24/48)
Umphreys McGee
by Umphreys McGee
701
1
0
Source: AKG 391b (A/B) > Zoom H4n (24/48)
Umphreys McGee
by Umphreys McGee
578
2
0
Source: AKG SE-5E/CE-1 (X/Y 90) > Naiant Littlebox > Marantz PMD620 @ 24/48 > SanDisk SDHC
Umphreys McGee
by Umphreys McGee
399
1
0
Source: AKG SE-5E/CE-1 (NOS) > Edirol UA-5 > Marantz PMD620 @ 24/48 > SanDisk SDHC
Umphreys McGee
by Umphreys McGee
167
1
0
Source: AKG 391b > Zoom H4n (24/48)
Umphreys McGee
by Umphreys McGee
1,337
2
1
( 1 reviews )
Source: AKG 391b (A/B) > Zoom H4n (24/48)
Umphreys McGee
by Umphreys McGee
290
1
0
Source: AKG SE-5E/CE-1 (X/Y 90) > Edirol UA-5 > Marantz PMD620 @ 24/48 > SanDisk SDHC
Umphreys McGee
by Umphreys McGee
220
1
0
Source: AKG 391b (NOS) > Zoom H4n (24/48)